<?xml version="1.0" standalone="no"?>
<!DOCTYPE svg PUBLIC "-//W3C//DTD SVG 1.1//EN" "http://www.w3.org/Graphics/SVG/1.1/DTD/svg11.dtd" >
<svg xmlns="http://www.w3.org/2000/svg">
<metadata></metadata>
<defs>
<font id="BitstreamVeraSansRoman" horiz-adv-x="1303" >
<font-face units-per-em="2048" ascent="1556" descent="-492" />
<missing-glyph horiz-adv-x="651" />
<glyph horiz-adv-x="0" />
<glyph horiz-adv-x="2048" />
<glyph unicode="&#xd;" horiz-adv-x="651" />
<glyph unicode=" "  horiz-adv-x="651" />
<glyph unicode="&#x09;" horiz-adv-x="651" />
<glyph unicode="&#xa0;" horiz-adv-x="651" />
<glyph unicode="!" horiz-adv-x="821" d="M309 0v254h203v-254h-203zM309 838v655h203v-655l-20 -357h-162z" />
<glyph unicode="&#x22;" horiz-adv-x="942" d="M197 938v555h170v-555h-170zM575 938v555h170v-555h-170z" />
<glyph unicode="#" horiz-adv-x="1716" d="M158 414v153h352l84 334h-322v154h361l102 415h162l-104 -415h292l105 415h160l-103 -415h312v-154h-351l-82 -334h318v-153h-357l-104 -414h-160l103 414h-293l-103 -414h-161l104 414h-315zM672 567h293l82 334h-291z" />
<glyph unicode="$" d="M170 92v180q204 -128 422 -130v456q-221 36 -321.5 122t-100.5 242.5t109 250.5t313 108v235h100v-232q184 -8 350 -62v-175q-166 84 -350 92v-427q227 -35 334 -125t107 -252.5t-113.5 -260t-327.5 -112.5v-303h-100l-1 301q-214 4 -421 92zM354 974q0 -87 56.5 -135 t181.5 -69v410q-116 -13 -177 -66t-61 -140zM692 145q256 34 256 217q0 88 -61.5 140t-194.5 76v-433z" />
<glyph unicode="%" horiz-adv-x="1946" d="M113 1113q0 187 93 297t251 110t252 -109.5t94 -297.5t-93.5 -297t-252.5 -109t-251.5 109.5t-92.5 296.5zM272 1113q0 -131 49 -205t136 -74t136.5 74t49.5 204.5t-50 205.5t-136 75t-135.5 -74.5t-49.5 -205.5zM426 -29l934 1549h160l-934 -1549h-160zM1143 377.5 q0 187.5 93.5 297t252 109.5t251.5 -110t93 -297t-93.5 -296.5t-252 -109.5t-251.5 109.5t-93 297zM1303 378q0 -131 49.5 -205.5t135.5 -74.5t135.5 74.5t49.5 205t-49.5 205t-135.5 74.5t-135.5 -74t-49.5 -205z" />
<glyph unicode="&#x26;" horiz-adv-x="1597" d="M129 461q0 254 268 452q-98 129 -98 248q0 162 111 260.5t284.5 98.5t343.5 -72v-182q-178 96 -298 96t-185.5 -55.5t-65.5 -143.5q0 -51 29.5 -102.5t120.5 -145.5l508 -520q119 180 131 406h186q-24 -266 -209 -516l279 -285h-252l-143 147q-206 -176 -455 -176 t-402 137.5t-153 352.5zM322 473q0 -146 106 -243t266 -97q189 0 334 127l-530 543q-176 -157 -176 -330z" />
<glyph unicode="'" horiz-adv-x="563" d="M197 938v555h170v-555h-170z" />
<glyph unicode="(" horiz-adv-x="799" d="M176 642.5q0 444.5 299 911.5h160q-264 -453 -264 -911t264 -913h-160q-299 468 -299 912.5z" />
<glyph unicode=")" horiz-adv-x="799" d="M164 -270q264 455 264 913q0 454 -264 911h160q299 -470 299 -913t-299 -911h-160z" />
<glyph unicode="*" horiz-adv-x="1024" d="M61 858l359 195l-359 194l58 99l336 -203v377h114v-377l336 203l58 -99l-359 -194l359 -195l-58 -98l-336 203v-377h-114v377l-336 -203z" />
<glyph unicode="+" horiz-adv-x="1716" d="M217 557v170h557v557h168v-557h557v-170h-557v-557h-168v557h-557z" />
<glyph unicode="," horiz-adv-x="651" d="M158 -238l82 320v172h211v-172l-164 -320h-129z" />
<glyph unicode="-" horiz-adv-x="739" d="M100 479v164h539v-164h-539z" />
<glyph unicode="." horiz-adv-x="651" d="M219 0v254h211v-254h-211z" />
<glyph unicode="/" horiz-adv-x="690" d="M0 -190l520 1683h170l-520 -1683h-170z" />
<glyph unicode="0" d="M135 745.5q0 377.5 132.5 576t383.5 198.5t383.5 -198.5t132.5 -576t-132.5 -576t-383.5 -198.5t-383.5 198.5t-132.5 576zM338 745.5q0 -614.5 313.5 -614.5t313.5 614.5t-313.5 614.5t-313.5 -614.5z" />
<glyph unicode="1" d="M225 1237v184l357 72h202v-1323h330v-170h-860v170h330v1139z" />
<glyph unicode="2" d="M150 0v170q115 119 313.5 319.5t272.5 284.5q151 170 151 298t-83.5 203t-217.5 75q-188 0 -426 -133v204q246 99 422 99q232 0 370 -116t138 -310q0 -92 -34.5 -174.5t-125.5 -194.5q-50 -58 -537 -555h705v-170h-948z" />
<glyph unicode="3" d="M156 45v195q170 -99 376 -99q406 0 406 293q0 132 -92.5 206.5t-257.5 74.5h-174v166h182q149 0 228 59.5t79 173t-81.5 175t-240 61.5t-380.5 -74v180q230 64 405 64q230 0 364 -104.5t134 -282.5q0 -124 -71 -209.5t-202 -118.5q145 -31 226.5 -129t81.5 -242 q0 -221 -152 -342t-432 -121q-187 0 -399 74z" />
<glyph unicode="4" d="M100 352v195l621 946h254v-973h213v-168h-213v-352h-201v352h-674zM264 520h510v797z" />
<glyph unicode="5" d="M158 35v203q178 -97 370 -97t293 91t101 247t-101 247t-268.5 91t-331.5 -74v750h793v-170h-608v-366q88 30 176 30q250 0 396 -137t146 -374.5t-150 -371t-423 -133.5q-185 0 -393 64z" />
<glyph unicode="6" d="M143 733.5q0 365.5 168 576t451 210.5q147 0 315 -60v-184q-156 74 -307 74q-396 0 -426 -543q122 180 345.5 180t354 -136.5t130.5 -369t-136 -371.5t-362 -139q-259 0 -396 198.5t-137 564zM381 479.5q0 -161.5 79.5 -255t215.5 -93.5t215.5 93.5t79.5 255t-79.5 254.5 t-215.5 93t-215.5 -93t-79.5 -254.5z" />
<glyph unicode="7" d="M168 1323v170h960v-86l-542 -1407h-211l510 1323h-717z" />
<glyph unicode="8" d="M139 420q0 143 82 242t228 133q-130 32 -202.5 121t-72.5 217q0 179 127.5 283t350 104t349.5 -104t127 -283q0 -128 -72.5 -217t-201.5 -121q146 -34 227.5 -133t81.5 -242q0 -217 -132.5 -333t-379.5 -116t-379.5 116t-132.5 333zM342 420q0 -135 82.5 -212t226.5 -77 t227 77.5t83 212t-82.5 211.5t-227 77t-227 -77t-82.5 -212zM375 1114q0 -116 72.5 -181t203 -65t204 65t73.5 181t-73.5 181t-204 65t-203 -65t-72.5 -181z" />
<glyph unicode="9" d="M129 1009.5q0 232.5 136 371.5t362 139q259 0 395.5 -198.5t136.5 -564t-167.5 -576t-450.5 -210.5q-148 0 -316 60v184q156 -74 307 -74q200 0 305.5 134.5t120.5 408.5q-120 -178 -344 -178t-354.5 135.5t-130.5 368zM332 1011.5q0 -161.5 79.5 -254.5t215.5 -93 t215.5 93t79.5 254.5t-79.5 255t-215.5 93.5t-215.5 -93.5t-79.5 -255z" />
<glyph unicode=":" horiz-adv-x="690" d="M240 0v254h211v-254h-211zM240 805v254h211v-254h-211z" />
<glyph unicode=";" horiz-adv-x="690" d="M158 -238l82 320v172h211v-172l-164 -320h-129zM240 805v254h211v-254h-211z" />
<glyph unicode="&#x3c;" horiz-adv-x="1716" d="M217 559v166l1282 465v-182l-1032 -367l1032 -365v-182z" />
<glyph unicode="=" horiz-adv-x="1716" d="M217 352v170h1282v-170h-1282zM217 762v168h1282v-168h-1282z" />
<glyph unicode="&#x3e;" horiz-adv-x="1716" d="M217 94v182l1030 365l-1030 367v182l1282 -465v-166z" />
<glyph unicode="?" horiz-adv-x="1087" d="M147 1219v188q186 113 380 113t305.5 -97t111.5 -256q0 -76 -36 -144.5t-126 -154.5l-88 -86q-79 -79 -90 -113q-16 -52 -16 -145v-123h-191v154q0 101 28 166t118 151l90 89q108 100 108 192.5t-65.5 147.5t-173.5 55q-157 0 -355 -137zM391 0v254h203v-254h-203z" />
<glyph unicode="@" horiz-adv-x="2048" d="M135 543q0 182 68 347t195.5 291t296.5 193.5t369.5 67.5t382 -87t304.5 -247q154 -201 154 -457.5t-159 -408.5t-439 -158v154q-117 -150 -303.5 -150t-294 124.5t-107.5 324.5t108 325t294 125t303 -151v131h143v-736q146 22 228.5 133.5t82.5 288.5q0 216 -127 375 q-104 131 -253.5 200.5t-298.5 69.5q-279 0 -472 -129q-157 -102 -245.5 -267.5t-88.5 -341.5q0 -342 224 -560q215 -213 538 -213q266 0 482 168l90 -111q-258 -200 -572 -200q-379 0 -641 256t-262 643zM762 536q0 -142 71 -223.5t194.5 -81.5t194 82t70.5 223t-72 223.5 t-193.5 82.5t-193 -82t-71.5 -224z" />
<glyph unicode="A" horiz-adv-x="1401" d="M16 0l570 1493h229l569 -1493h-210l-136 383h-673l-136 -383h-213zM426 551h549l-275 743z" />
<glyph unicode="B" horiz-adv-x="1405" d="M201 0v1493h516q231 0 356 -96t125 -273q0 -278 -252 -319q149 -32 231.5 -133.5t82.5 -253.5q0 -200 -136 -309t-387 -109h-536zM403 166h324q163 0 241.5 67.5t78.5 207t-78.5 206t-241.5 66.5h-324v-547zM403 877h299q293 0 293 225t-293 225h-299v-450z" />
<glyph unicode="C" horiz-adv-x="1430" d="M115 745.5q0 359.5 195 567t534 207.5q267 0 475 -142v-213q-203 189 -461 189t-394 -156.5t-136 -452t136 -452t394 -156.5t461 189v-211q-212 -144 -475 -144q-339 0 -534 207.5t-195 567z" />
<glyph unicode="D" horiz-adv-x="1577" d="M201 0v1493h415q434 0 637 -180.5t203 -565.5t-204 -566t-636 -181h-415zM403 166h244q309 0 452.5 140t143.5 441t-143.5 440.5t-452.5 139.5h-244v-1161z" />
<glyph unicode="E" horiz-adv-x="1294" d="M201 0v1493h944v-170h-742v-442h711v-170h-711v-541h760v-170h-962z" />
<glyph unicode="F" horiz-adv-x="1178" d="M201 0v1493h858v-170h-656v-440h592v-170h-592v-713h-202z" />
<glyph unicode="G" horiz-adv-x="1587" d="M115 745.5q0 365.5 197.5 570t547.5 204.5q295 0 520 -142v-215q-225 191 -503 191q-549 0 -549 -608.5t549 -608.5q211 0 342 76v401h-330v166h530v-641q-237 -168 -573 -168t-533.5 204.5t-197.5 570z" />
<glyph unicode="H" horiz-adv-x="1540" d="M201 0v1493h202v-612h734v612h202v-1493h-202v711h-734v-711h-202z" />
<glyph unicode="I" horiz-adv-x="604" d="M201 0v1493h202v-1493h-202z" />
<glyph unicode="J" horiz-adv-x="604" d="M-106 -240h63q134 0 189 75t55 269v1389h202v-1389q0 -270 -102.5 -392t-329.5 -122h-77v170z" />
<glyph unicode="K" horiz-adv-x="1343" d="M201 0v1493h202v-631l670 631h260l-741 -696l794 -797h-266l-717 719v-719h-202z" />
<glyph unicode="L" horiz-adv-x="1141" d="M201 0v1493h202v-1323h727v-170h-929z" />
<glyph unicode="M" horiz-adv-x="1767" d="M201 0v1493h301l381 -1016l383 1016h301v-1493h-197v1311l-385 -1024h-203l-385 1024v-1311h-196z" />
<glyph unicode="N" horiz-adv-x="1532" d="M201 0v1493h272l662 -1249v1249h196v-1493h-272l-662 1249v-1249h-196z" />
<glyph unicode="O" horiz-adv-x="1612" d="M115 745q0 354 188.5 564.5t503 210.5t502.5 -210.5t188 -564t-188 -564t-502.5 -210.5t-503 210t-188.5 564zM328 745.5q0 -282.5 129.5 -446.5t349.5 -164t348.5 164t128.5 446.5t-128.5 446.5t-348.5 164t-349.5 -164t-129.5 -446.5z" />
<glyph unicode="P" horiz-adv-x="1235" d="M201 0v1493h456q251 0 379.5 -113.5t128.5 -333.5t-128.5 -333t-379.5 -113h-254v-600h-202zM403 766h254q141 0 218 73t77 207.5t-77 207.5t-218 73h-254v-561z" />
<glyph unicode="Q" horiz-adv-x="1612" d="M115 745.5q0 353.5 188.5 564t503 210.5t502.5 -210.5t188 -564.5q0 -260 -104.5 -445t-302.5 -273l266 -291h-244l-221 239q-66 -4 -84 -4q-315 0 -503.5 210.5t-188.5 564zM328 745.5q0 -282.5 129.5 -446.5t349.5 -164t348.5 164t128.5 446.5t-128.5 446.5t-348.5 164 t-349.5 -164t-129.5 -446.5z" />
<glyph unicode="R" horiz-adv-x="1423" d="M201 0v1493h456q508 0 508 -430q0 -141 -65.5 -234t-190.5 -129q128 -43 250 -292l205 -408h-217l-191 383q-74 150 -143.5 199t-189.5 49h-220v-631h-202zM403 797h254q295 0 295 266q0 264 -295 264h-254v-530z" />
<glyph unicode="S" horiz-adv-x="1300" d="M135 1107.5q0 184.5 139.5 298.5t366.5 114t455 -76v-197q-228 109 -403.5 109t-265 -64t-89.5 -172.5t59.5 -159t225.5 -81.5l122 -25q226 -43 333.5 -151.5t107.5 -290.5q0 -217 -145.5 -329t-426.5 -112q-214 0 -473 95v208q248 -139 473 -139q173 0 267 68t94 186 t-67.5 180t-221.5 93l-123 24q-226 45 -327 141t-101 280.5z" />
<glyph unicode="T" horiz-adv-x="1251" d="M-6 1323v170h1263v-170h-530v-1323h-203v1323h-530z" />
<glyph unicode="U" horiz-adv-x="1499" d="M178 561v932h203v-907q0 -240 87 -345.5t281.5 -105.5t281.5 105.5t87 345.5v907h203v-932q0 -292 -144.5 -441t-427 -149t-427 149t-144.5 441z" />
<glyph unicode="V" horiz-adv-x="1401" d="M16 1493h211l473 -1257l474 1257h210l-569 -1493h-229z" />
<glyph unicode="W" horiz-adv-x="2025" d="M68 1493h204l314 -1262l313 1262h227l314 -1262l313 1262h205l-375 -1493h-254l-315 1296l-318 -1296h-254z" />
<glyph unicode="X" horiz-adv-x="1403" d="M61 0l533 797l-465 696h217l371 -555l373 555h217l-480 -717l512 -776h-217l-420 635l-423 -635h-218z" />
<glyph unicode="Y" horiz-adv-x="1251" d="M-4 1493h217l414 -614l411 614h217l-528 -782v-711h-203v711z" />
<glyph unicode="Z" horiz-adv-x="1403" d="M92 0v154l944 1169h-921v170h1173v-154l-944 -1169h967v-170h-1219z" />
<glyph unicode="[" horiz-adv-x="799" d="M176 -270v1826h424v-143h-240v-1540h240v-143h-424z" />
<glyph unicode="\" horiz-adv-x="690" d="M0 1493h170l520 -1683h-170z" />
<glyph unicode="]" horiz-adv-x="799" d="M199 -127h239v1540h-239v143h424v-1826h-424v143z" />
<glyph unicode="^" horiz-adv-x="1716" d="M217 936l543 557h196l543 -557h-201l-440 395l-440 -395h-201z" />
<glyph unicode="_" horiz-adv-x="1024" d="M-20 -340h1064v-143h-1064v143z" />
<glyph unicode="`" horiz-adv-x="1024" d="M170 1638h197l282 -374h-153z" />
<glyph unicode="a" horiz-adv-x="1255" d="M123 326q0 381 504 381h258v18q0 127 -83.5 196.5t-256 69.5t-340.5 -92v170q202 78 381 78q483 0 483 -508v-639h-184v170q-123 -199 -387 -199q-172 0 -273.5 96.5t-101.5 258.5zM307 350.5q0 -110.5 64.5 -168t175.5 -57.5q153 0 245.5 108.5t92.5 288.5v41h-183 q-223 0 -309 -51t-86 -161.5z" />
<glyph unicode="b" horiz-adv-x="1300" d="M186 0v1556h185v-606q114 197 358 197q204 0 331.5 -162t127.5 -426t-127.5 -426t-331.5 -162q-244 0 -358 197v-168h-185zM371 559q0 -203 83.5 -318.5t229.5 -115.5t229.5 115.5t83.5 318.5t-83.5 318.5t-229.5 115.5t-229.5 -115.5t-83.5 -318.5z" />
<glyph unicode="c" horiz-adv-x="1126" d="M113 561q0 272 150.5 429t412.5 157q171 0 323 -70v-172q-156 86 -325 86t-268 -113.5t-99 -318.5t99 -318.5t268 -113.5t325 86v-170q-154 -72 -335 -72q-253 0 -402 159t-149 431z" />
<glyph unicode="d" horiz-adv-x="1300" d="M113 559q0 264 127.5 426t330.5 162q245 0 359 -197v606h184v-1556h-184v168q-114 -197 -359 -197q-203 0 -330.5 162t-127.5 426zM303 559q0 -203 83.5 -318.5t229.5 -115.5t230 115.5t84 318.5t-84 318.5t-230 115.5t-229.5 -115.5t-83.5 -318.5z" />
<glyph unicode="e" horiz-adv-x="1260" d="M113 553.5q0 270.5 148.5 432t387.5 161.5t370.5 -145.5t131.5 -395.5v-90h-846q12 -190 114.5 -289.5t297.5 -99.5t391 104v-174q-203 -86 -414 -86q-268 0 -424.5 156t-156.5 426.5zM311 659l656 1q-2 151 -84.5 241t-227.5 90t-237.5 -87t-106.5 -245z" />
<glyph unicode="f" horiz-adv-x="721" d="M47 977v143h176v78q0 187 87 272.5t276 85.5h174v-153h-176q-99 0 -137.5 -40t-38.5 -144v-99h303v-143h-303v-977h-185v977h-176z" />
<glyph unicode="g" horiz-adv-x="1300" d="M113 573.5q0 259.5 126 416.5t332 157q246 0 359 -197v170h184v-981q0 -286 -127 -425.5t-389 -139.5q-191 0 -350 59v179q158 -86 321 -86q361 0 361 380v91q-113 -197 -359 -197q-206 0 -332 157t-126 416.5zM303 573.5q0 -199.5 82.5 -309.5t231 -110t231 110 t82.5 309.5t-82.5 309.5t-231 110t-231 -110t-82.5 -309.5z" />
<glyph unicode="h" horiz-adv-x="1298" d="M186 0v1556h185v-610q131 201 362 201q193 0 292 -119.5t99 -351.5v-676h-184v670q0 317 -248 317q-149 0 -235 -95t-86 -259v-633h-185z" />
<glyph unicode="i" horiz-adv-x="569" d="M193 0v1120h184v-1120h-184zM193 1323v233h184v-233h-184z" />
<glyph unicode="j" horiz-adv-x="569" d="M-37 -270h49q105 0 143 48.5t38 201.5v1140h184v-1140q0 -214 -81.5 -310t-262.5 -96h-70v156zM193 1323v233h184v-233h-184z" />
<glyph unicode="k" horiz-adv-x="1186" d="M186 0v1556h185v-919l549 483h235l-594 -524l619 -596h-240l-569 547v-547h-185z" />
<glyph unicode="l" horiz-adv-x="569" d="M193 0v1556h184v-1556h-184z" />
<glyph unicode="m" horiz-adv-x="1995" d="M186 0v1120h185v-174q123 201 360 201q122 0 207.5 -62t126.5 -180q135 242 391 242q175 0 270 -122.5t95 -348.5v-676h-185v670q0 317 -231 317q-143 0 -226 -95t-83 -259v-633h-185v670q0 162 -57 239.5t-187 77.5t-213 -95.5t-83 -258.5v-633h-185z" />
<glyph unicode="n" horiz-adv-x="1298" d="M186 0v1120h185v-174q131 201 362 201q193 0 292 -119.5t99 -351.5v-676h-184v670q0 317 -248 317q-149 0 -235 -95t-86 -259v-633h-185z" />
<glyph unicode="o" horiz-adv-x="1253" d="M113 559.5q0 275.5 136.5 431.5t377 156t377.5 -156t137 -431.5t-137 -432t-377.5 -156.5t-377 156.5t-136.5 432zM307 559q0 -201 85.5 -316.5t233.5 -115.5t234 116t86 315.5t-86 316t-233.5 116.5t-233.5 -115.5t-86 -316.5z" />
<glyph unicode="p" horiz-adv-x="1300" d="M186 -426v1546h185v-170q114 197 358 197q204 0 331.5 -162t127.5 -426t-127.5 -426t-331.5 -162q-244 0 -358 197v-594h-185zM371 559q0 -203 83.5 -318.5t229.5 -115.5t229.5 115.5t83.5 318.5t-83.5 318.5t-229.5 115.5t-229.5 -115.5t-83.5 -318.5z" />
<glyph unicode="q" horiz-adv-x="1300" d="M113 559q0 264 127.5 426t330.5 162q245 0 359 -197v170h184v-1546h-184v594q-114 -197 -359 -197q-203 0 -330.5 162t-127.5 426zM303 559q0 -203 83.5 -318.5t229.5 -115.5t230 115.5t84 318.5t-84 318.5t-230 115.5t-229.5 -115.5t-83.5 -318.5z" />
<glyph unicode="r" horiz-adv-x="842" d="M186 0v1120h185v-174q114 201 377 201q37 0 93 -10l1 -189q-60 35 -148 35q-156 0 -239.5 -101.5t-83.5 -291.5v-590h-185z" />
<glyph unicode="s" horiz-adv-x="1067" d="M111 41v190q204 -106 397 -106q130 0 200 44.5t70 122.5t-50.5 118t-221.5 77l-64 15q-171 36 -247 110.5t-76 218.5t112 230t318 86t358 -60v-174q-156 80 -336 80q-274 0 -274 -168q0 -64 49 -100.5t197 -69.5l63 -14q196 -42 278.5 -118.5t82.5 -223t-123.5 -237.5 t-320 -91t-412.5 70z" />
<glyph unicode="t" horiz-adv-x="803" d="M55 977v143h135v318h185v-318h379v-143h-379v-608q0 -137 37.5 -176t152.5 -39h189v-154h-189q-213 0 -294 79.5t-81 289.5v608h-135z" />
<glyph unicode="u" horiz-adv-x="1298" d="M174 442v678h184v-671q0 -318 248 -318q149 0 235.5 95t86.5 259v635h184v-1120h-184v172q-132 -201 -361 -201q-193 0 -293 120t-100 351z" />
<glyph unicode="v" horiz-adv-x="1212" d="M61 1120h195l350 -940l350 940h195l-420 -1120h-250z" />
<glyph unicode="w" horiz-adv-x="1675" d="M86 1120h184l230 -874l229 874h217l230 -874l229 874h184l-293 -1120h-217l-241 918l-242 -918h-217z" />
<glyph unicode="x" horiz-adv-x="1212" d="M59 0l435 586l-398 534h217l297 -399l297 399h217l-405 -545l426 -575h-217l-326 440l-326 -440h-217z" />
<glyph unicode="y" horiz-adv-x="1212" d="M61 1120h195l350 -876l350 876h195l-492 -1224q-78 -200 -152 -261t-198 -61h-147v154h108q76 0 118 36t93 170l33 84z" />
<glyph unicode="z" horiz-adv-x="1075" d="M88 0v168l692 805h-667v147h874v-168l-692 -805h692v-147h-899z" />
<glyph unicode="{" d="M256 541v143h61q143 0 196.5 57.5t53.5 206.5v240q0 221 84.5 294.5t333.5 73.5h62v-143h-68q-141 0 -184 -44t-43 -185v-248q0 -157 -45.5 -228t-155.5 -96q111 -27 156 -98t45 -227v-248q0 -141 43 -185t184 -44h68v-144h-62q-249 0 -333.5 74t-84.5 295v239 q0 151 -54 209t-196 58h-61z" />
<glyph unicode="|" horiz-adv-x="690" d="M260 -483v2048h170v-2048h-170z" />
<glyph unicode="}" d="M256 -190h70q140 0 182.5 43t42.5 186v248q0 156 45 227t156 98q-111 25 -156 96t-45 228v248q0 142 -42.5 185.5t-182.5 43.5h-70v143h63q249 0 332.5 -73.5t83.5 -294.5v-240q0 -149 54 -206.5t196 -57.5h62v-143h-62q-142 0 -196 -58t-54 -209v-239q0 -221 -83.5 -295 t-332.5 -74h-63v144z" />
<glyph unicode="~" horiz-adv-x="1716" d="M217 467v178q105 79 194.5 113.5t192.5 34.5q101 0 266 -66q187 -70 271 -70q162 0 358 160v-178q-105 -79 -194.5 -113t-192.5 -34q-104 0 -266 65q-163 70 -271 70q-169 0 -358 -160z" />
<glyph unicode="&#xa0;" />
<glyph unicode="&#xa1;" horiz-adv-x="821" d="M309 0v655l21 357h162l20 -357v-655h-203zM309 1239v254h203v-254h-203z" />
<glyph unicode="&#xa2;" d="M172 559.5q0 257.5 132.5 410.5t373.5 175v287h102l1 -287q146 -8 278 -68v-172q-145 80 -278 86l-1 -864q138 10 279 86v-170q-126 -58 -279 -72v-284h-102v288q-241 20 -373.5 173.5t-132.5 411zM367 558.5q0 -184.5 82 -297.5t229 -130v856q-147 -18 -229 -131 t-82 -297.5z" />
<glyph unicode="&#xa3;" d="M129 0v170h236v465h-199v143h199v238q0 261 107 382.5t339 121.5q128 0 291 -60v-182q-152 82 -286.5 82t-192.5 -77.5t-58 -289.5v-215h391v-143h-391v-465h557v-170h-993z" />
<glyph unicode="&#xa4;" d="M94 197l207 206q-74 124 -74 243t76 231l-207 206l115 115l207 -207q107 76 230.5 76t242.5 -74l207 209l114 -115l-206 -206q73 -116 73 -240t-78 -235l209 -207l-114 -113l-207 207q-115 -78 -234 -78t-241 74l-207 -207zM383 642q0 -113 78.5 -191t191.5 -78t191 78.5 t78 191t-77.5 189.5t-190.5 77t-192 -77t-79 -190z" />
<glyph unicode="&#xa5;" d="M82 1493h190l379 -700l377 700h191l-318 -586h264v-123h-331l-84 -155v-51h415v-123h-413v-455h-201v455h-416v123h416v51l-84 155h-332v123h264z" />
<glyph unicode="&#xa6;" horiz-adv-x="690" d="M260 -350v758h170v-758h-170zM260 674v758h170v-758h-170z" />
<glyph unicode="&#xa7;" horiz-adv-x="1024" d="M92 723q0 184 184 283q-118 88 -118 221.5t100 213t256.5 79.5t314.5 -58v-164q-166 78 -272.5 78t-160.5 -40t-54 -111q0 -90 206 -205q26 -15 40 -23q211 -119 276.5 -196t65.5 -178q0 -178 -185 -283q119 -100 119 -233.5t-102 -217.5t-258 -84t-332 58v164 q174 -78 284.5 -78t167 42t56.5 118q0 102 -221 225l-25 14q-214 120 -278 196.5t-64 178.5zM254 761.5q0 -83.5 69.5 -150t319.5 -201.5q125 89 125 173t-71.5 152t-317.5 201q-125 -91 -125 -174.5z" />
<glyph unicode="&#xa8;" horiz-adv-x="1024" d="M215 1350v202h203v-202h-203zM606 1350v202h203v-202h-203z" />
<glyph unicode="&#xa9;" horiz-adv-x="2048" d="M283 741q0 308 217 525q219 219 524 219t524 -219q217 -217 217 -525q0 -305 -217 -522q-219 -219 -524 -219t-524 219q-217 217 -217 522zM383 741q0 -260 190 -450q189 -189 451 -189q264 0 453 189q186 186 186 450q0 265 -186 453q-188 188 -453 188 q-263 0 -451 -188q-190 -190 -190 -453zM582 741.5q0 208.5 125.5 329.5t341.5 121q142 0 274 -55v-129q-130 65 -270.5 65t-224 -87.5t-83.5 -245.5t85.5 -245t226 -87t266.5 65v-127q-132 -57 -274 -57q-216 0 -341.5 122t-125.5 330.5z" />
<glyph unicode="&#xaa;" horiz-adv-x="965" d="M115 946q0 273 379 273h182v4q0 182 -234 182q-130 0 -266 -68v127q146 56 287 56q362 0 362 -355v-448h-149v112q-91 -131 -281 -131q-128 0 -204 67.5t-76 180.5zM139 469v123h688v-123h-688zM262 965.5q0 -71.5 49 -110t142 -38.5t158 72t65 186v29h-127 q-161 0 -224 -33.5t-63 -105z" />
<glyph unicode="&#xab;" horiz-adv-x="1253" d="M158 559v82l469 418v-191l-301 -268l301 -268v-191zM592 559v82l469 418v-191l-301 -268l301 -268v-191z" />
<glyph unicode="&#xac;" horiz-adv-x="1716" d="M217 692v170h1282v-575h-168v405h-1114z" />
<glyph unicode="&#xad;" horiz-adv-x="739" d="M100 479v164h539v-164h-539z" />
<glyph unicode="&#xae;" horiz-adv-x="2048" d="M283 741q0 308 217 525q219 219 524 219t524 -219q217 -217 217 -525q0 -305 -217 -522q-219 -219 -524 -219t-524 219q-217 217 -217 522zM383 741q0 -260 190 -450q189 -189 451 -189q264 0 453 189q186 186 186 450q0 265 -186 453q-188 188 -453 188 q-263 0 -451 -188q-190 -190 -190 -453zM719 338v836h285q350 0 350 -240q0 -86 -52.5 -142t-148.5 -73q47 -16 137 -158l137 -223h-172l-129 209q-59 96 -95.5 121.5t-90.5 25.5h-66v-356h-155zM874 795h123q110 0 153.5 31t43.5 106.5t-44 107t-153 31.5h-123v-276z" />
<glyph unicode="&#xaf;" horiz-adv-x="1024" d="M213 1378v148h598v-148h-598z" />
<glyph unicode="&#xb0;" horiz-adv-x="1024" d="M195 1199.5q0 134.5 92 227.5t226.5 93t223.5 -95q92 -90 92 -223.5t-92.5 -225t-227 -91.5t-224.5 90t-90 224.5zM322 1200.5q0 -79.5 55 -134t135 -54.5t135 54.5t55 133.5t-55.5 135t-135 56t-134.5 -55.5t-55 -135z" />
<glyph unicode="&#xb1;" horiz-adv-x="1716" d="M217 0v170h1282v-170h-1282zM217 727v170h557v387h168v-387h557v-170h-557v-387h-168v387h-557z" />
<glyph unicode="&#xb2;" horiz-adv-x="821" d="M94 668v110q34 31 97 87q344 305 344 399q0 66 -52 106.5t-145.5 40.5t-237.5 -70v123q154 56 283 56t216 -66t87 -174q0 -139 -331 -423q-56 -48 -87 -75h424v-114h-598z" />
<glyph unicode="&#xb3;" horiz-adv-x="821" d="M98 694v121q102 -53 224.5 -53t182.5 39.5t60 109.5q0 150 -219 150h-86v108h94q191 0 191 121t-195 121q-79 0 -223 -41v115q150 35 275 35t209.5 -59t84.5 -158q0 -69 -45 -117t-127 -66q92 -18 142.5 -72.5t50.5 -136.5q0 -124 -95 -191t-272 -67q-108 0 -252 41z" />
<glyph unicode="&#xb4;" horiz-adv-x="1024" d="M371 1262l280 376h199l-326 -376h-153z" />
<glyph unicode="&#xb5;" d="M174 -426v1546h184v-696q0 -293 273 -293q297 0 297 336v653h184v-862q0 -117 72 -117q15 0 69 23v-148q-80 -45 -149 -45q-136 0 -166 158q-100 -158 -298 -158t-282 156v-553h-184z" />
<glyph unicode="&#xb6;" d="M158 1074q0 187 130 303t345 116h448v-1690h-141v1567h-190v-1567h-142v846q-215 17 -332.5 127.5t-117.5 297.5z" />
<glyph unicode="&#xb7;" horiz-adv-x="651" d="M219 584v254h211v-254h-211z" />
<glyph unicode="&#xb8;" horiz-adv-x="1024" d="M291 -240q64 -32 155 -32q119 0 119 94q0 59 -88 178h119q109 -123 109 -215q0 -180 -238 -180q-90 0 -176 24v131z" />
<glyph unicode="&#xb9;" horiz-adv-x="821" d="M137 1348v116l230 39h137v-725h205v-110h-553v110h204v611z" />
<glyph unicode="&#xba;" horiz-adv-x="965" d="M96 1108.5q0 190.5 104 301t283 110.5t282 -110.5t103 -301.5t-103 -300.5t-282 -109.5t-283 110t-104 300.5zM139 469v123h688v-123h-688zM252 1109.5q0 -134.5 63.5 -214.5t168 -80t167 80t62.5 215t-62 215t-167.5 80t-168.5 -80.5t-63 -215z" />
<glyph unicode="&#xbb;" horiz-adv-x="1253" d="M193 141v191l301 268l-301 268v191l469 -418v-82zM627 141v191l301 268l-301 268v191l469 -418v-82z" />
<glyph unicode="&#xbc;" horiz-adv-x="1985" d="M137 1348v116l230 39h137v-725h205v-110h-553v110h204v611zM446 -29l932 1549h160l-932 -1549h-160zM1226 186v121l392 528h166v-540h135v-109h-135v-186h-144v186h-414zM1331 295h309v419z" />
<glyph unicode="&#xbd;" horiz-adv-x="1985" d="M137 1348v116l230 39h137v-725h205v-110h-553v110h204v611zM446 -29l932 1549h160l-932 -1549h-160zM1257 0v110q34 31 97 87q344 305 344 399q0 66 -52 106.5t-145.5 40.5t-237.5 -70v123q154 56 283 56t216 -66t87 -174q0 -139 -331 -423q-56 -48 -87 -75h424v-114 h-598z" />
<glyph unicode="&#xbe;" horiz-adv-x="1985" d="M98 694v121q102 -53 224.5 -53t182.5 39.5t60 109.5q0 150 -219 150h-86v108h94q191 0 191 121t-195 121q-79 0 -223 -41v115q150 35 275 35t209.5 -59t84.5 -158q0 -69 -45 -117t-127 -66q92 -18 142.5 -72.5t50.5 -136.5q0 -124 -95 -191t-272 -67q-108 0 -252 41z M446 -29l932 1549h160l-932 -1549h-160zM1226 186v121l392 528h166v-540h135v-109h-135v-186h-144v186h-414zM1331 295h309v419z" />
<glyph unicode="&#xbf;" horiz-adv-x="1087" d="M143 324q0 76 36.5 144.5t125.5 154.5l88 86q79 77 94 125q13 39 13 135v123h190v-156q0 -101 -27.5 -166t-117.5 -152l-90 -88q-109 -100 -109 -192.5t65.5 -147.5t174.5 -55q158 0 354 137v-188q-186 -113 -379.5 -113t-305.5 97t-112 256zM494 1239v254h202v-254h-202 z" />
<glyph unicode="&#xc0;" horiz-adv-x="1401" d="M16 0l570 1493h229l569 -1493h-210l-136 383h-673l-136 -383h-213zM426 551h549l-275 743zM456 1899h187l196 -264h-153z" />
<glyph unicode="&#xc1;" horiz-adv-x="1401" d="M16 0l570 1493h229l569 -1493h-210l-136 383h-673l-136 -383h-213zM426 551h549l-275 743zM559 1635l196 264h185l-228 -264h-153z" />
<glyph unicode="&#xc2;" horiz-adv-x="1401" d="M16 0l570 1493h229l569 -1493h-210l-136 383h-673l-136 -383h-213zM395 1635l211 266h188l211 -266h-139l-166 178l-166 -178h-139zM426 551h549l-275 743z" />
<glyph unicode="&#xc3;" horiz-adv-x="1401" d="M16 0l570 1493h229l569 -1493h-210l-136 383h-673l-136 -383h-213zM370 1667q0 101 51.5 160t137.5 59q69 0 145 -43l57 -30q44 -25 74 -25t50 25.5t20 66.5v6h125q-2 -100 -53.5 -159.5t-124.5 -59.5t-156 43l-57 33q-45 25 -74.5 25t-49.5 -25t-20 -70v-6h-125z M426 551h549l-275 743z" />
<glyph unicode="&#xc4;" horiz-adv-x="1401" d="M16 0l570 1493h229l569 -1493h-210l-136 383h-673l-136 -383h-213zM403 1667v203h203v-203h-203zM426 551h549l-275 743zM794 1667v203h203v-203h-203z" />
<glyph unicode="&#xc5;" horiz-adv-x="1401" d="M16 0l533 1397q-123 83 -123 229q0 115 79.5 195t194 80t195 -80.5t80.5 -194.5q0 -145 -123 -229l532 -1397h-210l-136 383h-673l-136 -383h-213zM428 551h545l-273 743zM549 1627q0 -64 44 -108t107 -44t107.5 44t44.5 107t-44.5 107.5t-108 44.5t-107 -43.5 t-43.5 -107.5z" />
<glyph unicode="&#xc6;" horiz-adv-x="1995" d="M8 0l625 1493h1212v-170h-741v-442h711v-170h-711v-541h760v-170h-963v383h-528l-160 -383h-205zM442 551h459v784h-129z" />
<glyph unicode="&#xc7;" horiz-adv-x="1430" d="M115 745.5q0 359.5 195 567t534 207.5q267 0 475 -142v-213q-203 189 -461 189t-394 -156.5t-136 -452t136 -452t394 -156.5t461 189v-211q-212 -144 -475 -144q-339 0 -534 207.5t-195 567zM592 -240q64 -32 155 -32q119 0 119 94q0 59 -88 178h119q109 -123 109 -215 q0 -180 -238 -180q-90 0 -176 24v131z" />
<glyph unicode="&#xc8;" horiz-adv-x="1294" d="M201 0v1493h944v-170h-742v-442h711v-170h-711v-541h760v-170h-962zM426 1899h187l196 -264h-153z" />
<glyph unicode="&#xc9;" horiz-adv-x="1294" d="M201 0v1493h944v-170h-742v-442h711v-170h-711v-541h760v-170h-962zM529 1635l196 264h185l-228 -264h-153z" />
<glyph unicode="&#xca;" horiz-adv-x="1294" d="M201 0v1493h944v-170h-742v-442h711v-170h-711v-541h760v-170h-962zM365 1635l211 266h188l211 -266h-139l-166 178l-166 -178h-139z" />
<glyph unicode="&#xcb;" horiz-adv-x="1294" d="M201 0v1493h944v-170h-742v-442h711v-170h-711v-541h760v-170h-962zM373 1667v203h203v-203h-203zM764 1667v203h203v-203h-203z" />
<glyph unicode="&#xcc;" horiz-adv-x="604" d="M59 1899h187l196 -264h-153zM201 0v1493h202v-1493h-202z" />
<glyph unicode="&#xcd;" horiz-adv-x="604" d="M162 1635l196 264h185l-228 -264h-153zM201 0v1493h202v-1493h-202z" />
<glyph unicode="&#xce;" horiz-adv-x="604" d="M-2 1635l211 266h188l211 -266h-139l-166 178l-166 -178h-139zM201 0v1493h202v-1493h-202z" />
<glyph unicode="&#xcf;" horiz-adv-x="604" d="M6 1667v203h203v-203h-203zM201 0v1493h202v-1493h-202zM397 1667v203h203v-203h-203z" />
<glyph unicode="&#xd0;" horiz-adv-x="1587" d="M10 700v144h201v649h416q433 0 636 -180.5t203 -565.5t-203.5 -566t-635.5 -181h-416v700h-201zM414 166h243q309 0 452.5 140t143.5 441t-143.5 440.5t-452.5 139.5h-243v-483h336v-144h-336v-534z" />
<glyph unicode="&#xd1;" horiz-adv-x="1532" d="M201 0v1493h272l662 -1249v1249h196v-1493h-272l-662 1249v-1249h-196zM436 1667q0 101 51.5 160t137.5 59q69 0 145 -43l57 -30q44 -25 74 -25t50 25.5t20 66.5v6h125q-2 -100 -53.5 -159.5t-124.5 -59.5t-156 43l-57 33q-45 25 -74.5 25t-49.5 -25t-20 -70v-6h-125z " />
<glyph unicode="&#xd2;" horiz-adv-x="1612" d="M115 745q0 354 188.5 564.5t503 210.5t502.5 -210.5t188 -564t-188 -564t-502.5 -210.5t-503 210t-188.5 564zM328 745.5q0 -282.5 129.5 -446.5t349.5 -164t348.5 164t128.5 446.5t-128.5 446.5t-348.5 164t-349.5 -164t-129.5 -446.5zM563 1899h187l196 -264h-153z" />
<glyph unicode="&#xd3;" horiz-adv-x="1612" d="M115 745q0 354 188.5 564.5t503 210.5t502.5 -210.5t188 -564t-188 -564t-502.5 -210.5t-503 210t-188.5 564zM328 745.5q0 -282.5 129.5 -446.5t349.5 -164t348.5 164t128.5 446.5t-128.5 446.5t-348.5 164t-349.5 -164t-129.5 -446.5zM666 1635l196 264h185l-228 -264 h-153z" />
<glyph unicode="&#xd4;" horiz-adv-x="1612" d="M115 745q0 354 188.5 564.5t503 210.5t502.5 -210.5t188 -564t-188 -564t-502.5 -210.5t-503 210t-188.5 564zM328 745.5q0 -282.5 129.5 -446.5t349.5 -164t348.5 164t128.5 446.5t-128.5 446.5t-348.5 164t-349.5 -164t-129.5 -446.5zM502 1635l211 266h188l211 -266 h-139l-166 178l-166 -178h-139z" />
<glyph unicode="&#xd5;" horiz-adv-x="1612" d="M115 745q0 354 188.5 564.5t503 210.5t502.5 -210.5t188 -564t-188 -564t-502.5 -210.5t-503 210t-188.5 564zM328 745.5q0 -282.5 129.5 -446.5t349.5 -164t348.5 164t128.5 446.5t-128.5 446.5t-348.5 164t-349.5 -164t-129.5 -446.5zM477 1667q0 101 51.5 160 t137.5 59q69 0 145 -43l57 -30q44 -25 74 -25t50 25.5t20 66.5v6h125q-2 -100 -53.5 -159.5t-124.5 -59.5t-156 43l-57 33q-45 25 -74.5 25t-49.5 -25t-20 -70v-6h-125z" />
<glyph unicode="&#xd6;" horiz-adv-x="1612" d="M115 745q0 354 188.5 564.5t503 210.5t502.5 -210.5t188 -564t-188 -564t-502.5 -210.5t-503 210t-188.5 564zM328 745.5q0 -282.5 129.5 -446.5t349.5 -164t348.5 164t128.5 446.5t-128.5 446.5t-348.5 164t-349.5 -164t-129.5 -446.5zM510 1667v203h203v-203h-203z M901 1667v203h203v-203h-203z" />
<glyph unicode="&#xd7;" horiz-adv-x="1716" d="M281 184l456 457l-456 459l118 121l459 -459l459 459l119 -121l-457 -459l457 -457l-119 -121l-459 459l-459 -459z" />
<glyph unicode="&#xd8;" horiz-adv-x="1612" d="M102 18l170 201q-157 205 -157 542.5t188.5 548t503.5 210.5q262 0 438 -152l162 191l102 -89l-170 -198q158 -209 158 -544.5t-188 -546t-502 -210.5q-258 0 -440 150l-162 -191zM328 745q0 -232 78 -368l718 848q-125 131 -331 131t-335.5 -164t-129.5 -447zM489 266 q127 -131 332.5 -131t334 164t128.5 446q0 225 -78 367z" />
<glyph unicode="&#xd9;" horiz-adv-x="1499" d="M178 561v932h203v-907q0 -240 87 -345.5t281.5 -105.5t281.5 105.5t87 345.5v907h203v-932q0 -292 -144.5 -441t-427 -149t-427 149t-144.5 441zM506 1899h187l196 -264h-153z" />
<glyph unicode="&#xda;" horiz-adv-x="1499" d="M178 561v932h203v-907q0 -240 87 -345.5t281.5 -105.5t281.5 105.5t87 345.5v907h203v-932q0 -292 -144.5 -441t-427 -149t-427 149t-144.5 441zM609 1635l196 264h185l-228 -264h-153z" />
<glyph unicode="&#xdb;" horiz-adv-x="1499" d="M178 561v932h203v-907q0 -240 87 -345.5t281.5 -105.5t281.5 105.5t87 345.5v907h203v-932q0 -292 -144.5 -441t-427 -149t-427 149t-144.5 441zM445 1635l211 266h188l211 -266h-139l-166 178l-166 -178h-139z" />
<glyph unicode="&#xdc;" horiz-adv-x="1499" d="M178 561v932h203v-907q0 -240 87 -345.5t281.5 -105.5t281.5 105.5t87 345.5v907h203v-932q0 -292 -144.5 -441t-427 -149t-427 149t-144.5 441zM453 1667v203h203v-203h-203zM844 1667v203h203v-203h-203z" />
<glyph unicode="&#xdd;" horiz-adv-x="1251" d="M-4 1493h217l414 -614l411 614h217l-528 -782v-711h-203v711zM486 1635l196 264h185l-228 -264h-153z" />
<glyph unicode="&#xde;" horiz-adv-x="1239" d="M201 0v1493h202v-264h254q251 0 379.5 -112.5t128.5 -332.5t-128.5 -333t-379.5 -113h-254v-338h-202zM403 504h254q141 0 218 73t77 207t-76.5 206.5t-218.5 72.5h-254v-559z" />
<glyph unicode="&#xdf;" horiz-adv-x="1290" d="M186 0v1137q0 200 119.5 309.5t332.5 109.5t322.5 -116t112.5 -340q-151 -8 -235 -65.5t-84 -153.5q0 -91 123 -170l57 -37q166 -106 214 -177t48 -171q0 -172 -112.5 -263.5t-323.5 -91.5q-124 0 -273 49v164q157 -59 285 -59q236 0 236 186q0 63 -29.5 105t-130.5 104 l-92 55q-96 59 -139.5 126.5t-43.5 158.5q0 127 83.5 213t234.5 115q-8 103 -73.5 159t-187 56t-189.5 -69.5t-68 -200.5v-1133h-187z" />
<glyph unicode="&#xe0;" horiz-adv-x="1255" d="M123 326q0 381 504 381h258v18q0 127 -83.5 196.5t-256 69.5t-340.5 -92v170q202 78 381 78q483 0 483 -508v-639h-184v170q-123 -199 -387 -199q-172 0 -273.5 96.5t-101.5 258.5zM252 1638h197l282 -374h-153zM307 350.5q0 -110.5 64.5 -168t175.5 -57.5 q153 0 245.5 108.5t92.5 288.5v41h-183q-223 0 -309 -51t-86 -161.5z" />
<glyph unicode="&#xe1;" horiz-adv-x="1255" d="M123 326q0 381 504 381h258v18q0 127 -83.5 196.5t-256 69.5t-340.5 -92v170q202 78 381 78q483 0 483 -508v-639h-184v170q-123 -199 -387 -199q-172 0 -273.5 96.5t-101.5 258.5zM307 350.5q0 -110.5 64.5 -168t175.5 -57.5q153 0 245.5 108.5t92.5 288.5v41h-183 q-223 0 -309 -51t-86 -161.5zM453 1262l280 376h199l-326 -376h-153z" />
<glyph unicode="&#xe2;" horiz-adv-x="1255" d="M123 326q0 381 504 381h258v18q0 127 -83.5 196.5t-256 69.5t-340.5 -92v170q202 78 381 78q483 0 483 -508v-639h-184v170q-123 -199 -387 -199q-172 0 -273.5 96.5t-101.5 258.5zM275 1262l245 376h148l245 -376h-139l-180 245l-180 -245h-139zM307 350.5 q0 -110.5 64.5 -168t175.5 -57.5q153 0 245.5 108.5t92.5 288.5v41h-183q-223 0 -309 -51t-86 -161.5z" />
<glyph unicode="&#xe3;" horiz-adv-x="1255" d="M123 326q0 381 504 381h258v18q0 127 -83.5 196.5t-256 69.5t-340.5 -92v170q202 78 381 78q483 0 483 -508v-639h-184v170q-123 -199 -387 -199q-172 0 -273.5 96.5t-101.5 258.5zM264 1309q2 135 53 208.5t142 73.5q71 0 139 -61l57 -55q43 -39 74 -39q66 0 70 155h125 q-2 -135 -53 -208.5t-132 -73.5t-149 61l-57 55q-43 39 -74 39q-66 0 -70 -155h-125zM307 350.5q0 -110.5 64.5 -168t175.5 -57.5q153 0 245.5 108.5t92.5 288.5v41h-183q-223 0 -309 -51t-86 -161.5z" />
<glyph unicode="&#xe4;" horiz-adv-x="1255" d="M123 326q0 381 504 381h258v18q0 127 -83.5 196.5t-256 69.5t-340.5 -92v170q202 78 381 78q483 0 483 -508v-639h-184v170q-123 -199 -387 -199q-172 0 -273.5 96.5t-101.5 258.5zM297 1350v202h203v-202h-203zM307 350.5q0 -110.5 64.5 -168t175.5 -57.5 q153 0 245.5 108.5t92.5 288.5v41h-183q-223 0 -309 -51t-86 -161.5zM688 1350v202h203v-202h-203z" />
<glyph unicode="&#xe5;" horiz-adv-x="1255" d="M123 326q0 381 504 381h258v18q0 127 -83.5 196.5t-256 69.5t-340.5 -92v170q202 78 381 78q483 0 483 -508v-639h-184v170q-123 -199 -387 -199q-172 0 -273.5 96.5t-101.5 258.5zM307 350.5q0 -110.5 64.5 -168t175.5 -57.5q153 0 245.5 108.5t92.5 288.5v41h-183 q-223 0 -309 -51t-86 -161.5zM320 1524q0 115 79.5 194.5t194.5 79.5t194.5 -79.5t79.5 -194.5t-79.5 -195t-194.5 -80t-194.5 80t-79.5 195zM442 1523.5q0 -64.5 43.5 -108t108 -43.5t108.5 44t44 107.5t-44 107.5t-108.5 44t-108 -43.5t-43.5 -108z" />
<glyph unicode="&#xe6;" horiz-adv-x="2011" d="M123 326q0 381 504 381h258v18q0 127 -83.5 196.5t-256 69.5t-340.5 -92v170q202 78 363 78q314 0 427 -184q151 184 418 184q226 0 358 -145.5t132 -395.5v-90h-846q12 -191 114 -291t295.5 -100t393.5 106v-174q-205 -86 -414 -86q-337 0 -492 240q-146 -240 -432 -240 q-189 0 -294 93.5t-105 261.5zM307 350.5q0 -110.5 64.5 -168t175.5 -57.5q153 0 245.5 108.5t92.5 288.5v41h-183q-223 0 -309 -51t-86 -161.5zM1063 659l655 1q-1 151 -83.5 241t-227.5 90t-237.5 -87t-106.5 -245z" />
<glyph unicode="&#xe7;" horiz-adv-x="1126" d="M113 561q0 272 150.5 429t412.5 157q171 0 323 -70v-172q-156 86 -325 86t-268 -113.5t-99 -318.5t99 -318.5t268 -113.5t325 86v-170q-154 -72 -335 -72q-253 0 -402 159t-149 431zM434 -240q64 -32 155 -32q119 0 119 94q0 59 -88 178h119q109 -123 109 -215 q0 -180 -238 -180q-90 0 -176 24v131z" />
<glyph unicode="&#xe8;" horiz-adv-x="1260" d="M113 553.5q0 270.5 148.5 432t387.5 161.5t370.5 -145.5t131.5 -395.5v-90h-846q12 -190 114.5 -289.5t297.5 -99.5t391 104v-174q-203 -86 -414 -86q-268 0 -424.5 156t-156.5 426.5zM309 1638h197l282 -374h-153zM311 659l656 1q-2 151 -84.5 241t-227.5 90t-237.5 -87 t-106.5 -245z" />
<glyph unicode="&#xe9;" horiz-adv-x="1260" d="M113 553.5q0 270.5 148.5 432t387.5 161.5t370.5 -145.5t131.5 -395.5v-90h-846q12 -190 114.5 -289.5t297.5 -99.5t391 104v-174q-203 -86 -414 -86q-268 0 -424.5 156t-156.5 426.5zM311 659l656 1q-2 151 -84.5 241t-227.5 90t-237.5 -87t-106.5 -245zM510 1262 l280 376h199l-326 -376h-153z" />
<glyph unicode="&#xea;" horiz-adv-x="1260" d="M113 553.5q0 270.5 148.5 432t387.5 161.5t370.5 -145.5t131.5 -395.5v-90h-846q12 -190 114.5 -289.5t297.5 -99.5t391 104v-174q-203 -86 -414 -86q-268 0 -424.5 156t-156.5 426.5zM311 659l656 1q-2 151 -84.5 241t-227.5 90t-237.5 -87t-106.5 -245zM332 1262 l245 376h148l245 -376h-139l-180 245l-180 -245h-139z" />
<glyph unicode="&#xeb;" horiz-adv-x="1260" d="M113 553.5q0 270.5 148.5 432t387.5 161.5t370.5 -145.5t131.5 -395.5v-90h-846q12 -190 114.5 -289.5t297.5 -99.5t391 104v-174q-203 -86 -414 -86q-268 0 -424.5 156t-156.5 426.5zM311 659l656 1q-2 151 -84.5 241t-227.5 90t-237.5 -87t-106.5 -245zM354 1350v202 h203v-202h-203zM745 1350v202h203v-202h-203z" />
<glyph unicode="&#xec;" horiz-adv-x="569" d="M-57 1638h197l282 -374h-153zM193 0v1120h184v-1120h-184z" />
<glyph unicode="&#xed;" horiz-adv-x="569" d="M144 1262l280 376h199l-326 -376h-153zM193 0v1120h184v-1120h-184z" />
<glyph unicode="&#xee;" horiz-adv-x="569" d="M-34 1262l245 376h148l245 -376h-139l-180 245l-180 -245h-139zM193 0v1120h184v-1120h-184z" />
<glyph unicode="&#xef;" horiz-adv-x="569" d="M-12 1350v202h203v-202h-203zM193 0v1120h184v-1120h-184zM379 1350v202h203v-202h-203z" />
<glyph unicode="&#xf0;" horiz-adv-x="1253" d="M113 534.5q0 252.5 138 408t359 155.5q28 0 112 -10l-159 180l-319 -107l-33 99l281 92l-181 204h228l127 -145l333 111l33 -97l-295 -98l164 -186q126 -143 183 -287t57 -317q0 -255 -142 -410.5t-372.5 -155.5t-372 155.5t-141.5 408zM307 540.5q0 -191.5 87 -302.5 t232.5 -111t232.5 111t87 299q0 242 -108 378q-97 33 -179 33q-167 0 -259.5 -108t-92.5 -299.5z" />
<glyph unicode="&#xf1;" horiz-adv-x="1298" d="M186 0v1120h185v-174q131 201 362 201q193 0 292 -119.5t99 -351.5v-676h-184v670q0 317 -248 317q-149 0 -235 -95t-86 -259v-633h-185zM334 1309q2 135 53 208.5t142 73.5q71 0 139 -61l57 -55q43 -39 74 -39q66 0 70 155h125q-2 -135 -53 -208.5t-132 -73.5t-149 61 l-57 55q-43 39 -74 39q-66 0 -70 -155h-125z" />
<glyph unicode="&#xf2;" horiz-adv-x="1253" d="M113 559.5q0 275.5 136.5 431.5t377 156t377.5 -156t137 -431.5t-137 -432t-377.5 -156.5t-377 156.5t-136.5 432zM285 1638h197l282 -374h-153zM307 559q0 -201 85.5 -316.5t233.5 -115.5t234 116t86 315.5t-86 316t-233.5 116.5t-233.5 -115.5t-86 -316.5z" />
<glyph unicode="&#xf3;" horiz-adv-x="1253" d="M113 559.5q0 275.5 136.5 431.5t377 156t377.5 -156t137 -431.5t-137 -432t-377.5 -156.5t-377 156.5t-136.5 432zM307 559q0 -201 85.5 -316.5t233.5 -115.5t234 116t86 315.5t-86 316t-233.5 116.5t-233.5 -115.5t-86 -316.5zM486 1262l280 376h199l-326 -376h-153z " />
<glyph unicode="&#xf4;" horiz-adv-x="1253" d="M113 559.5q0 275.5 136.5 431.5t377 156t377.5 -156t137 -431.5t-137 -432t-377.5 -156.5t-377 156.5t-136.5 432zM307 559q0 -201 85.5 -316.5t233.5 -115.5t234 116t86 315.5t-86 316t-233.5 116.5t-233.5 -115.5t-86 -316.5zM308 1262l245 376h148l245 -376h-139 l-180 245l-180 -245h-139z" />
<glyph unicode="&#xf5;" horiz-adv-x="1253" d="M113 559.5q0 275.5 136.5 431.5t377 156t377.5 -156t137 -431.5t-137 -432t-377.5 -156.5t-377 156.5t-136.5 432zM297 1309q2 135 53 208.5t142 73.5q71 0 139 -61l57 -55q43 -39 74 -39q66 0 70 155h125q-2 -135 -53 -208.5t-132 -73.5t-149 61l-57 55q-43 39 -74 39 q-66 0 -70 -155h-125zM307 559q0 -201 85.5 -316.5t233.5 -115.5t234 116t86 315.5t-86 316t-233.5 116.5t-233.5 -115.5t-86 -316.5z" />
<glyph unicode="&#xf6;" horiz-adv-x="1253" d="M113 559.5q0 275.5 136.5 431.5t377 156t377.5 -156t137 -431.5t-137 -432t-377.5 -156.5t-377 156.5t-136.5 432zM307 559q0 -201 85.5 -316.5t233.5 -115.5t234 116t86 315.5t-86 316t-233.5 116.5t-233.5 -115.5t-86 -316.5zM330 1350v202h203v-202h-203zM721 1350 v202h203v-202h-203z" />
<glyph unicode="&#xf7;" horiz-adv-x="1716" d="M217 557v170h1282v-170h-1282zM735 150v245h246v-245h-246zM735 889v246h246v-246h-246z" />
<glyph unicode="&#xf8;" horiz-adv-x="1253" d="M72 -16l149 182q-108 154 -108 411.5t136.5 413.5t377.5 156q186 0 319 -103l139 168l95 -79l-146 -179q107 -155 107 -412.5t-137 -414t-377 -156.5q-193 0 -320 103l-139 -168zM307 545q0 -138 39 -228l488 592q-84 82 -221 82t-221.5 -117.5t-84.5 -328.5zM418 209 q80 -82 218 -82t224 116t86 316q0 152 -41 242z" />
<glyph unicode="&#xf9;" horiz-adv-x="1298" d="M174 442v678h184v-671q0 -318 248 -318q149 0 235.5 95t86.5 259v635h184v-1120h-184v172q-132 -201 -361 -201q-193 0 -293 120t-100 351zM293 1638h197l282 -374h-153z" />
<glyph unicode="&#xfa;" horiz-adv-x="1298" d="M174 442v678h184v-671q0 -318 248 -318q149 0 235.5 95t86.5 259v635h184v-1120h-184v172q-132 -201 -361 -201q-193 0 -293 120t-100 351zM494 1262l280 376h199l-326 -376h-153z" />
<glyph unicode="&#xfb;" horiz-adv-x="1298" d="M174 442v678h184v-671q0 -318 248 -318q149 0 235.5 95t86.5 259v635h184v-1120h-184v172q-132 -201 -361 -201q-193 0 -293 120t-100 351zM316 1262l245 376h148l245 -376h-139l-180 245l-180 -245h-139z" />
<glyph unicode="&#xfc;" horiz-adv-x="1298" d="M174 442v678h184v-671q0 -318 248 -318q149 0 235.5 95t86.5 259v635h184v-1120h-184v172q-132 -201 -361 -201q-193 0 -293 120t-100 351zM338 1350v202h203v-202h-203zM729 1350v202h203v-202h-203z" />
<glyph unicode="&#xfd;" horiz-adv-x="1212" d="M61 1120h195l350 -876l350 876h195l-492 -1224q-78 -200 -152 -261t-198 -61h-147v154h108q76 0 118 36t93 170l33 84zM465 1262l280 376h199l-326 -376h-153z" />
<glyph unicode="&#xfe;" horiz-adv-x="1300" d="M186 -426v1982h185v-606q114 197 358 197q204 0 331.5 -162t127.5 -426t-127.5 -426t-331.5 -162q-244 0 -358 197v-594h-185zM371 559q0 -203 83.5 -318.5t229.5 -115.5t229.5 115.5t83.5 318.5t-83.5 318.5t-229.5 115.5t-229.5 -115.5t-83.5 -318.5z" />
<glyph unicode="&#xff;" horiz-adv-x="1212" d="M61 1120h195l350 -876l350 876h195l-492 -1224q-78 -200 -152 -261t-198 -61h-147v154h108q76 0 118 36t93 170l33 84zM309 1350v202h203v-202h-203zM700 1350v202h203v-202h-203z" />
<glyph unicode="&#x152;" horiz-adv-x="2191" d="M115 746.5q0 366.5 223.5 556.5t656.5 190h1047v-170h-742v-442h711v-170h-711v-541h760v-170h-1065q-433 0 -656.5 190t-223.5 556.5zM328 746.5q0 -576.5 641 -576.5h129v1153h-129q-641 0 -641 -576.5z" />
<glyph unicode="&#x153;" horiz-adv-x="2095" d="M113 559.5q0 275.5 136.5 431.5t377.5 156q283 0 417 -219q160 219 453 219q226 0 358 -145.5t132 -395.5v-90h-846q12 -190 114 -289.5t297.5 -99.5t391.5 104v-174q-205 -86 -414 -86q-320 0 -483 219q-141 -219 -420 -219q-241 0 -377.5 156.5t-136.5 432zM307 559 q0 -201 85.5 -316.5t233.5 -115.5t234 116t86 315.5t-86 316t-233.5 116.5t-233.5 -115.5t-86 -316.5zM1147 659l655 1q-2 152 -84 241.5t-227 89.5t-237.5 -87t-106.5 -245z" />
<glyph unicode="&#x178;" horiz-adv-x="1251" d="M-4 1493h217l414 -614l411 614h217l-528 -782v-711h-203v711zM330 1667v203h203v-203h-203zM721 1667v203h203v-203h-203z" />
<glyph unicode="&#x2c6;" horiz-adv-x="1024" d="M193 1262l245 376h148l245 -376h-139l-180 245l-180 -245h-139z" />
<glyph unicode="&#x2dc;" horiz-adv-x="1024" d="M182 1309q2 135 53 208.5t142 73.5q71 0 139 -61l57 -55q43 -39 74 -39q66 0 70 155h125q-2 -135 -53 -208.5t-132 -73.5t-149 61l-57 55q-43 39 -74 39q-66 0 -70 -155h-125z" />
<glyph unicode="&#x2000;" horiz-adv-x="950" />
<glyph unicode="&#x2001;" horiz-adv-x="1901" />
<glyph unicode="&#x2002;" horiz-adv-x="950" />
<glyph unicode="&#x2003;" horiz-adv-x="1901" />
<glyph unicode="&#x2004;" horiz-adv-x="633" />
<glyph unicode="&#x2005;" horiz-adv-x="475" />
<glyph unicode="&#x2006;" horiz-adv-x="316" />
<glyph unicode="&#x2007;" horiz-adv-x="316" />
<glyph unicode="&#x2008;" horiz-adv-x="237" />
<glyph unicode="&#x2009;" horiz-adv-x="380" />
<glyph unicode="&#x200a;" horiz-adv-x="105" />
<glyph unicode="&#x2010;" horiz-adv-x="739" d="M100 479v164h539v-164h-539z" />
<glyph unicode="&#x2011;" horiz-adv-x="739" d="M100 479v164h539v-164h-539z" />
<glyph unicode="&#x2012;" horiz-adv-x="739" d="M100 479v164h539v-164h-539z" />
<glyph unicode="&#x2013;" horiz-adv-x="1024" d="M0 489v144h1024v-144h-1024z" />
<glyph unicode="&#x2014;" horiz-adv-x="2048" d="M0 489v144h2048v-144h-2048z" />
<glyph unicode="&#x2018;" horiz-adv-x="651" d="M174 1001v173l164 319h129l-82 -319v-173h-211z" />
<glyph unicode="&#x2019;" horiz-adv-x="651" d="M178 1022l82 319v152h211v-152l-164 -319h-129z" />
<glyph unicode="&#x201a;" horiz-adv-x="651" d="M174 -238l82 320v172h211v-172l-164 -320h-129z" />
<glyph unicode="&#x201c;" horiz-adv-x="1061" d="M174 1001v173l164 319h129l-82 -319v-173h-211zM584 1001v173l164 319h129l-82 -319v-173h-211z" />
<glyph unicode="&#x201d;" horiz-adv-x="1061" d="M174 1001l82 320v172h211v-172l-164 -320h-129zM584 1001l82 320v172h211v-172l-164 -320h-129z" />
<glyph unicode="&#x201e;" horiz-adv-x="1061" d="M174 -238l82 320v172h211v-172l-164 -320h-129zM584 -238l82 320v172h211v-172l-164 -320h-129z" />
<glyph unicode="&#x2022;" horiz-adv-x="1208" d="M307 761.5q0 124.5 86.5 210t211.5 85.5t210.5 -85.5t85.5 -210t-86 -210.5t-211 -86t-211 86t-86 210.5z" />
<glyph unicode="&#x2026;" horiz-adv-x="2048" d="M236 0v254h213v-254h-213zM918 0v254h212v-254h-212zM1599 0v254h213v-254h-213z" />
<glyph unicode="&#x202f;" horiz-adv-x="380" />
<glyph unicode="&#x2039;" horiz-adv-x="819" d="M158 559v82l469 418v-191l-301 -268l301 -268v-191z" />
<glyph unicode="&#x203a;" horiz-adv-x="819" d="M193 141v191l301 268l-301 268v191l469 -418v-82z" />
<glyph unicode="&#x205f;" horiz-adv-x="475" />
<glyph unicode="&#x20ac;" d="M0 520l55 123h139l-1 102l1 105h-194l55 123h156q40 257 195 402t391 145q196 0 370 -142v-213q-91 105 -175.5 150t-186.5 45q-157 0 -258 -100t-133 -287h577l-55 -123h-538q-3 -36 -3 -103.5t3 -103.5h446l-56 -123h-374q32 -187 133 -288t258 -101q102 0 186.5 45 t175.5 150v-211q-178 -144 -370 -144q-237 0 -391.5 145t-194.5 404h-211z" />
<glyph unicode="&#x2122;" horiz-adv-x="2048" d="M295 1399v94h518v-94h-203v-484h-114v484h-201zM926 915v578h172l174 -256l164 256h170v-578h-113v484l-195 -303h-55l-203 303v-484h-114z" />
<glyph unicode="&#xe000;" horiz-adv-x="1120" d="M0 0v1120h1120v-1120h-1120z" />
<glyph unicode="&#xfb01;" horiz-adv-x="1290" d="M47 977v143h176v78q0 183 86.5 270.5t265.5 87.5h185v-153h-176q-99 0 -137.5 -40t-38.5 -144v-99h690v-1120h-185v977h-505v-977h-185v977h-176zM913 1321v233h185v-233h-185z" />
<glyph unicode="&#xfb02;" horiz-adv-x="1290" d="M47 977v143h176v78q0 187 87 272.5t276 85.5h512v-1556h-185v1403h-329q-99 0 -137.5 -40t-38.5 -144v-99h303v-143h-303v-977h-185v977h-176z" />
</font>
</defs>
</svg>
